Read more... | YumeNikki.Dream.Diary.v2.0-CODEX | Hank Zipzer
dumemay.com - The Largest Bittorent System Login   |    Register
Latest Articles
Most searched
Hot torrents
Movie Torrents
View Torrent Info: Tully (2018) [720p] [YTS] [YIFY]
View Torrent Info: Duck Duck Goose (2018) [720p] [YTS] [YIFY]
View Torrent Info: Billionaire Boys Club (2018) [720p] [YTS] [YIFY]
View Torrent Info: Godzilla: City on the Edge of Battle (2018) [720p] [YTS] [YIFY]
View Torrent Info: A Prayer Before Dawn (2017) [720p] [YTS] [YIFY]
View Torrent Info: FernGully: The Last Rainforest (1992) [720p] [YTS] [YIFY]
View Torrent Info: Occupation (2018) [720p] [YTS] [YIFY]
View Torrent Info: Robin Williams: Come Inside My Mind (2018) [720p] [YTS] [YIFY]
View Torrent Info: Ghost Stories (2017) [720p] [YTS] [YIFY]
View Torrent Info: Tango One (2018) [720p] [YTS] [YIFY]
Hot torrents
TV Torrents
View Torrent Info: The.100.S05E10.HDTV.x264-SVA[eztv]
View Torrent Info: Marvels.Cloak.and.Dagger.S01E08.WEB.x264-TBS[eztv]
View Torrent Info: Shooter.S03E05.HDTV.x264-SVA[eztv]
View Torrent Info: Power.2014.S05E04.WEB.H264-DEFLATE[eztv]
View Torrent Info: The.Originals.S05E11.WEB.x264-TBS[eztv]
View Torrent Info: Code.Black.S03E13.HDTV.x264-KILLERS[eztv]
View Torrent Info: Colony.S03E12.HDTV.x264-SVA[eztv]
View Torrent Info: Queen.of.the.South.S03E05.HDTV.x264-SVA[eztv]
View Torrent Info: Killjoys.S04E01.HDTV.x264-LucidTV[eztv]
View Torrent Info: Reverie.S01E07.HDTV.x264-SVA[eztv]
dumemay.com > Categories > Movies torrents > DVD / Film Extras torrents


Browse Movies torrents

The Crescent 2018 Movies DVDRip x264 AAC with Sample ☻rDX☻ torrent



Download torrent: Download The Crescent 2018 Movies DVDRip x264 AAC with Sample ☻rDX☻ torrent Magnet link Bookmark Torrent: The Crescent 2018 Movies DVDRip x264 AAC with Sample ☻rDX☻ The Crescent 2018 Movies DVDRip x264 AAC with Sample ☻rDX☻ torrent | if not working, try instead: Magnet Link
Info hash: C30D70E5F110EACCF017391D89C9454E2EF73F2A
Category: Categories > Movies torrents > DVD / Film Extras torrents
Trackers:
14    View all torrent trackers >
Health:
 seeds: 1 ,  leechers: 1 |  Update >
Torrent language:  
Total Size: 705.70 MB
Torrent status: Added by trusted uploader Added by trusted uploader Trusted Uploader Site Friend Superman Sun
Uploader: Trusted Uploader Site Friend Superman Sun
Torrent added: 2018-07-12 12:06:12
 

Download The Crescent 2018 Movies DVDRip x264 AAC with Sample ☻rDX☻ torrent if not working, try downloading torrent using Download The Crescent 2018 Movies DVDRip x264 AAC with Sample ☻rDX☻ via Magnet Link




Torrent Description

The Crescent 2018 Movies DVDRip x264 AAC with Sample ☻rDX☻
===============================================================================================

SCREEN SHOTS:



or

http://iphonehosting.eu/2018/7/buck/1.html

File size : 693 MiB
Duration : 1 h 36 min
Overall bit rate : 1 000 kb/s
Movie name : The Crescent 2018 Movies DVDRip x264 AAC ☻rDX☻

Video
ID : 2
Format : MPEG-4 Visual
Format profile : Advanced [email protected]
Format settings, BVOP : 2
Format settings, QPel : No
Format settings, GMC : No warppoints
Format settings, Matrix : Default (H.263)
Muxing mode : Packed bitstream
Codec ID : V_MS/VFW/FOURCC / XVID
Codec ID/Hint : XviD
Duration : 1 h 36 min
Bit rate : 852 kb/s
Width : 640 pixels
Height : 352 pixels
Display aspect ratio : 16:9
Frame rate mode : Constant
Frame rate : 23.976 (24000/1001) FPS
Color space : YUV
Chroma subsampling : 4:2:0
Bit depth : 8 bits
Scan type : Progressive
Compression mode : Lossy
Bits/(Pixel*Frame) : 0.158
Stream size : 591 MiB (85%)
Title : ☻rDX☻
Writing library : XviD 65
Default : Yes
Forced : No

Audio
ID : 1
Format : MPEG Audio
Format version : Version 1
Format profile : Layer 3
Mode : Joint stereo
Codec ID : A_MPEG/L3
Codec ID/Hint : MP3
Duration : 1 h 36 min
Bit rate mode : Constant
Bit rate : 128 kb/s
Channel(s) : 2 channels
Sampling rate : 48.0 kHz
Compression mode : Lossy
Stream size : 88.7 MiB (13%)
Title : ☻rDX☻
Writing library : LAME3.99r
Default : Yes
Forced : No



IMDB : http://www.imdb.com/title/tt6044156



#nehalpuja -> To avoid fakes, ALWAYS check that the torrent was added on dumemay.com by nehalpuja

http://dumemay.com/



Download The Crescent 2018 Movies DVDRip x264 AAC with Sample ☻rDX☻ torrent


Comments (please add your comment)
No comments



Home - Browse Torrents - Upload Torrent - Stat - Forum - FAQ - Login
dumemay.com is in compliance with copyrights
2006-2018 dumemay.com