Shooter - Season 1 (2016–) | Oscar Bailey | Berüchtigte Geheimbünde
dumemay.com - The Largest Bittorent System Login   |    Register
Latest Articles
Most searched
Hot torrents
Movie Torrents
View Torrent Info: Overboard (2018) [720p] [YTS] [YIFY]
View Torrent Info: How It Ends (2018) [720p] [YTS] [YIFY]
View Torrent Info: Furious (2017) [720p] [YTS] [YIFY]
View Torrent Info: Siberia (2018) [720p] [YTS] [YIFY]
View Torrent Info: Traffik (2018) [720p] [YTS] [YIFY]
View Torrent Info: Bilal: A New Breed of Hero (2015) [720p] [YTS] [YIFY]
View Torrent Info: 5th Passenger (2018) [720p] [YTS] [YIFY]
View Torrent Info: 7 Splinters in Time (2018) [720p] [YTS] [YIFY]
View Torrent Info: White Fang (2018) [720p] [YTS] [YIFY]
View Torrent Info: The Endless (2017) [720p] [YTS] [YIFY]
Hot torrents
TV Torrents
View Torrent Info: The.100.S05E09.HDTV.x264-SVA[eztv]
View Torrent Info: The.Originals.S05E10.HDTV.x264-SVA[eztv]
View Torrent Info: The.Handmaids.Tale.S02E13.WEBRip.x264-TBS[eztv]
View Torrent Info: Shooter.S03E04.HDTV.x264-KILLERS[eztv]
View Torrent Info: Elementary.S06E11.WEBRip.x264-PBS[eztv]
View Torrent Info: Power.2014.S05E03.WEB.H264-DEFLATE[eztv]
View Torrent Info: Preacher.S03E04.HDTV.x264-SVA[eztv]
View Torrent Info: Sharp.Objects.S01E02.WEB.H264-DEFLATE[eztv]
View Torrent Info: Code.Black.S03E12.HDTV.x264-KILLERS[eztv]
View Torrent Info: Queen.of.the.South.S03E04.HDTV.x264-KILLERS[eztv]
dumemay.com > Categories > Movies torrents > Bollywood/Desi torrents


Browse Movies torrents

Angrezi Mein Kehte Hain 2018 x264 720p HD Esub Hindi GOPISAHI torrent



Download torrent: Download Angrezi Mein Kehte Hain 2018 x264 720p HD Esub Hindi GOPISAHI torrent Magnet link Bookmark Torrent: Angrezi Mein Kehte Hain 2018 x264 720p HD Esub Hindi GOPISAHI Angrezi Mein Kehte Hain 2018 x264 720p HD Esub Hindi GOPISAHI torrent | if not working, try instead: Magnet Link
Info hash: B4572C6E6860506563523F2823EB3B3783B52FF7
Category: Categories > Movies torrents > Bollywood/Desi torrents
Trackers:
13    View all torrent trackers >
Health:
 seeds: 10 ,  leechers: 3 |  Update >
Total Size: 625.60 MB
Torrent status: Added by trusted uploader Added by trusted uploader Trusted Uploader Site Friend Superman Sun
Uploader: Trusted Uploader Site Friend Superman Sun
Torrent added: 2018-07-12 07:38:09
 

Download Angrezi Mein Kehte Hain 2018 x264 720p HD Esub Hindi GOPISAHI torrent if not working, try downloading torrent using Download Angrezi Mein Kehte Hain 2018 x264 720p HD Esub Hindi GOPISAHI via Magnet Link




Torrent Description

http://www.gopisahi.pw/

Format : Matroska
Format version : Version 4 / Version 2
File size : 626 MiB
Duration : 1 h 48 min
Overall bit rate : 808 kb/s
Movie name : Angrezi Mein Kehte Hain 2018 GOPISAHI

Video
Format : AVC
Codec ID : V_MPEG4/ISO/AVC
Duration : 1 h 48 min
Bit rate : 710 kb/s
Width : 1 280 pixels
Height : 720 pixels
Display aspect ratio : 2.35:1
Frame rate mode : Constant
Frame rate : 23.976 (24000/1001) FPS
Color space : YUV
Chroma subsampling : 4:2:0
Bit depth : 8 bits
Scan type : Progressive
Bits/(Pixel*Frame) : 0.032
Stream size : 549 MiB (88%)
Title : GOPISAHI
Writing library : x264 core 155 r2901 7d0ff22
Language : Hindi

Audio
Format : AAC
Duration : 1 h 48 min
Bit rate : 96.0 kb/s
Channel(s) : 2 channels
Channel positions : Front: L R
Sampling rate : 48.0 kHz
Frame rate : 46.875 FPS (1024 SPF)
Compression mode : Lossy
Delay relative to video : 1 s 2 ms
Stream size : 74.4 MiB (12%)
Title : GOPISAHI
Language : Hindi

Text
Language : English




#PENDUDESI -> To avoid fakes, ALWAYS check that the torrent was added on dumemay.com by PENDUDESI

http://dumemay.com/



Download Angrezi Mein Kehte Hain 2018 x264 720p HD Esub Hindi GOPISAHI torrent


Comments (please add your comment)
No comments



Home - Browse Torrents - Upload Torrent - Stat - Forum - FAQ - Login
dumemay.com is in compliance with copyrights
2006-2018 dumemay.com