Agnyaathavaasi | Strangers season 05 episode 02 | Der Hundefl├╝sterer
dumemay.com - The Largest Bittorent System Login   |    Register
Latest Articles
Most searched
Hot torrents
Movie Torrents
View Torrent Info: Overboard (2018) [720p] [YTS] [YIFY]
View Torrent Info: How It Ends (2018) [720p] [YTS] [YIFY]
View Torrent Info: Furious (2017) [720p] [YTS] [YIFY]
View Torrent Info: Siberia (2018) [720p] [YTS] [YIFY]
View Torrent Info: Traffik (2018) [720p] [YTS] [YIFY]
View Torrent Info: Bilal: A New Breed of Hero (2015) [720p] [YTS] [YIFY]
View Torrent Info: 5th Passenger (2018) [720p] [YTS] [YIFY]
View Torrent Info: 7 Splinters in Time (2018) [720p] [YTS] [YIFY]
View Torrent Info: White Fang (2018) [720p] [YTS] [YIFY]
View Torrent Info: The Endless (2017) [720p] [YTS] [YIFY]
Hot torrents
TV Torrents
View Torrent Info: The.100.S05E09.HDTV.x264-SVA[eztv]
View Torrent Info: The.Originals.S05E10.HDTV.x264-SVA[eztv]
View Torrent Info: Shooter.S03E04.HDTV.x264-KILLERS[eztv]
View Torrent Info: Elementary.S06E11.WEBRip.x264-PBS[eztv]
View Torrent Info: Power.2014.S05E03.WEB.H264-DEFLATE[eztv]
View Torrent Info: The.Handmaids.Tale.S02E13.WEBRip.x264-TBS[eztv]
View Torrent Info: Preacher.S03E04.HDTV.x264-SVA[eztv]
View Torrent Info: Code.Black.S03E12.HDTV.x264-KILLERS[eztv]
View Torrent Info: Queen.of.the.South.S03E04.HDTV.x264-KILLERS[eztv]
View Torrent Info: SIX.S02E07.HDTV.x264-KILLERS[eztv]
dumemay.com > Categories > Movies torrents > Dubbed /Dual Audio torrents


Browse Movies torrents

Seventh Son (2014) 720p [Hindi Dubbed + English] (DD 5.1) HDRip x264 AC3 ESub by Full4movies torrent



Download torrent: Download Seventh Son (2014) 720p [Hindi Dubbed + English] (DD 5.1) HDRip x264 AC3 ESub by Full4movies torrent Magnet link Bookmark Torrent: Seventh Son (2014) 720p [Hindi Dubbed + English] (DD 5.1) HDRip x264 AC3 ESub by Full4movies Seventh Son (2014) 720p [Hindi Dubbed + English] (DD 5.1) HDRip x264 AC3 ESub by Full4movies torrent | if not working, try instead: Magnet Link
Info hash: B2C795284FE75F520973079C56DD67FBEC166E6B
Category: Categories > Movies torrents > Dubbed /Dual Audio torrents
Trackers:
15    View all torrent trackers >
Health:
 seeds: 2 ,  leechers: 0 |  Update >
Total Size: 1.20 GB
Torrent status: Added by trusted uploader Added by trusted uploader Trusted Uploader Site Friend Superman Sun
Uploader: Trusted Uploader Site Friend Superman Sun
Torrent added: 2018-07-10 12:39:40
 

Download Seventh Son (2014) 720p [Hindi Dubbed + English] (DD 5.1) HDRip x264 AC3 ESub by Full4movies torrent if not working, try downloading torrent using Download Seventh Son (2014) 720p [Hindi Dubbed + English] (DD 5.1) HDRip x264 AC3 ESub by Full4movies via Magnet Link




Torrent Description



General
Complete name : Unfriended (2014) 720p [Hindi Dubbed + English (DD 5.1)] HDRip x264 AC3 by Full4movies.mkv
Format : Matroska
Format version : Version 4 / Version 2
File size : 878 MiB
Duration : 1 h 22 min
Overall bit rate mode : Variable
Overall bit rate : 1 485 kb/s
Encoded date : UTC 2018-07-10 08:27:20
Writing application : mkvmerge v8.1.0 ('Psychedelic Postcard') 32bit
Writing library : libebml v1.3.1 + libmatroska v1.4.2

Video
ID : 1
Format : AVC
Format/Info : Advanced Video Codec
Format profile : [email protected]
Format settings, CABAC : Yes
Format settings, RefFrames : 4 frames
Codec ID : V_MPEG4/ISO/AVC
Duration : 1 h 22 min
Bit rate mode : Variable
Bit rate : 1 099 kb/s
Maximum bit rate : 50.0 Mb/s
Width : 1 280 pixels
Height : 720 pixels
Display aspect ratio : 16:9
Frame rate mode : Variable
Frame rate : 23.976 (24000/1001) FPS
Color space : YUV
Chroma subsampling : 4:2:0
Bit depth : 8 bits
Scan type : Progressive
Bits/(Pixel*Frame) : 0.050
Stream size : 649 MiB (74%)
Writing library : x264 core 148 r2638 7599210
Language : Hindi
Default : Yes
Forced : No
Color range : Limited
Color primaries : BT.709
Transfer characteristics : BT.709
Matrix coefficients : BT.709

Audio #1
ID : 2
Format : AC-3
Format/Info : Audio Coding 3
Format settings, Endianness : Big
Codec ID : A_AC3
Duration : 1 h 22 min
Bit rate mode : Constant
Bit rate : 192 kb/s
Channel(s) : 2 channels
Channel positions : Front: L R
Sampling rate : 48.0 kHz
Frame rate : 31.250 FPS (1536 SPF)
Bit depth : 16 bits
Compression mode : Lossy
Stream size : 114 MiB (13%)
Language : Hindi
Service kind : Complete Main
Default : Yes
Forced : Yes

Audio #2
ID : 3
Format : AC-3
Format/Info : Audio Coding 3
Format settings, Endianness : Big
Codec ID : A_AC3
Duration : 1 h 22 min
Bit rate mode : Constant
Bit rate : 192 kb/s
Channel(s) : 6 channels
Channel positions : Front: L C R, Side: L R, LFE
Sampling rate : 48.0 kHz
Frame rate : 31.250 FPS (1536 SPF)
Bit depth : 16 bits
Compression mode : Lossy
Stream size : 114 MiB (13%)
Language : English
Service kind : Complete Main
Default : No
Forced : No

Screen Shoots



#shmasti -> To avoid fakes, ALWAYS check that the torrent was added on dumemay.com by shmasti

http://dumemay.com/



Download Seventh Son (2014) 720p [Hindi Dubbed + English] (DD 5.1) HDRip x264 AC3 ESub by Full4movies torrent


Comments (please add your comment)
No comments



Home - Browse Torrents - Upload Torrent - Stat - Forum - FAQ - Login
dumemay.com is in compliance with copyrights
2006-2018 dumemay.com